- Watch Now | Watch movie | Watch movie

Welcome to download



Do not remember me!

 

Latest Comments

André Rieu / Andre Rieu: Falling in Love in Maastricht (2016)

André Rieu / Andre Rieu: Falling in Love in Maastricht (2016)
André Rieu / Andre Rieu: Falling in Love in Maastricht (2016)
BDRip | MKV | AVC 1280x720, ~ 3.2 Mbps | 2hr 31mn | 5.70 GB
English: DTS, 6 ch, 1510 kbps \ AC3, 6 ch, 640 kbps
Subtitles: Dutch, German, French, Spanish, Portuguese, Dutch
Genre: Music | Classical | neo-Classical

André Rieu is one of the world's most popular music artists. His legendary annual Maastricht concert is the most eagerly anticipated cinema event of the year, last year setting new box-office records in several countries.Set against the stunning medieval backdrop of the town square in André's Dutch hometown, the spectacular Maastricht concert features the maestro in his element, along with his world-famous 60-piece Johann Strauss Orchestra.
The wonderful thing about falling in love is it's not only another woman or man you can fall in love with. I remember very well, when my grandchildren were born, I immediately fell in love with those precious and wonderful little human beings! I wanted to hug and kiss them all the time.
Whenever I look at my audience during the Maastricht concert I get the feeling that everybody is in love! People seem so happy! Not only are they singing along with all their heart but they're constantly hugging and kissing each other, forgetting all the rest of the world.
And that's all due to the fantastic magical power of music!



General
Unique ID : 176070851867500078214963888531520805856 (0x84760339654C1C869945C7CDE2B6DBE0)
Complete name : L:\AndrR.FallingInLove.16.7p\AndrR.FallingInLove.16.7p.mkv
Format : Matroska
Format version : Version 4 / Version 2
File size : 5.70 GiB
Duration : 2 h 31 min
Overall bit rate : 5 380 kb/s
Movie name : Release RSU75
Encoded date : UTC 2017-09-11 05:17:22
Writing application : mkvmerge v6.6.0 ('The Edge Of The In Between') built on Dec 1 2013 17:55:00
Writing library : libebml v1.3.0 + libmatroska v1.4.1
Video
ID : 1
Format : AVC
Format/Info : Advanced Video Codec
Format profile : HighL3.1
Format settings : CABAC / 4 Ref Frames
Format settings, CABAC : Yes
Format settings, RefFrames : 4 frames
Codec ID : V_MPEG4/ISO/AVC
Duration : 2 h 31 min
Bit rate : 3 200 kb/s
Width : 1 280 pixels
Height : 720 pixels
Display aspect ratio : 16:9
Frame rate mode : Constant
Frame rate : 25.000 FPS
Color space : YUV
Chroma subsampling : 4:2:0
Bit depth : 8 bits
Scan type : Progressive
Bits/(Pixel*Frame) : 0.139
Stream size : 3.31 GiB (58%)
Writing library : x264 core 144 r2533 c8a773e
Encoding settings : cabac=1 / ref=4 / deblock=1:0:0 / analyse=0x3:0x113 / me=umh / subme=8 / psy=1 / psy_rd=1.00:0.00 / mixed_ref=1 / me_range=24 / chroma_me=1 / trellis=1 / 8x8dct=1 / cqm=0 / deadzone=21,11 / fast_pskip=1 / chroma_qp_offset=-2 / threads=3 / lookahead_threads=1 / sliced_threads=0 / nr=0 / decimate=1 / interlaced=0 / bluray_compat=0 / constrained_intra=0 / bframes=3 / b_pyramid=0 / b_adapt=2 / b_bias=0 / direct=3 / weightb=1 / open_gop=0 / weightp=2 / keyint=250 / keyint_min=25 / scenecut=40 / intra_refresh=0 / rc_lookahead=40 / rc=abr / mbtree=1 / bitrate=3200 / ratetol=1.0 / qcomp=0.60 / qpmin=10 / qpmax=51 / qpstep=4 / ip_ratio=1.41 / aq=1:1.00
Language : English
Default : Yes
Forced : No
Audio #1
ID : 2
Format : DTS
Format/Info : Digital Theater Systems
Mode : 16
Format settings, Endianness : Big
Codec ID : A_DTS
Duration : 2 h 31 min
Bit rate mode : Constant
Bit rate : 1 509 kb/s
Channel(s) : 6 channels
Channel positions : Front: L C R, Side: L R, LFE
Sampling rate : 48.0 kHz
Frame rate : 93.750 FPS (512 SPF)
Bit depth : 24 bits
Compression mode : Lossy
Delay relative to video : -40 ms
Stream size : 1.60 GiB (28%)
Language : English
Default : Yes
Forced : No
Audio #2
ID : 3
Format : AC-3
Format/Info : Audio Coding 3
Format settings, Endianness : Big
Codec ID : A_AC3
Duration : 2 h 31 min
Bit rate mode : Constant
Bit rate : 640 kb/s
Channel(s) : 6 channels
Channel positions : Front: L C R, Side: L R, LFE
Sampling rate : 48.0 kHz
Frame rate : 31.250 FPS (1536 SPF)
Bit depth : 16 bits
Compression mode : Lossy
Delay relative to video : -40 ms
Stream size : 695 MiB (12%)
Language : English
Service kind : Complete Main
Default : No
Forced : No
Text #1
ID : 4
Format : PGS
Muxing mode : zlib
Codec ID : S_HDMV/PGS
Codec ID/Info : Picture based subtitle format used on BDs/HD-DVDs
Language : English
Default : No
Forced : No
Text #2
ID : 5
Format : PGS
Muxing mode : zlib
Codec ID : S_HDMV/PGS
Codec ID/Info : Picture based subtitle format used on BDs/HD-DVDs
Language : French
Default : No
Forced : No
Text #3
ID : 6
Format : PGS
Muxing mode : zlib
Codec ID : S_HDMV/PGS
Codec ID/Info : Picture based subtitle format used on BDs/HD-DVDs
Language : Spanish
Default : No
Forced : No
Text #4
ID : 7
Format : PGS
Muxing mode : zlib
Codec ID : S_HDMV/PGS
Codec ID/Info : Picture based subtitle format used on BDs/HD-DVDs
Language : German
Default : No
Forced : No
Text #5
ID : 8
Format : PGS
Muxing mode : zlib
Codec ID : S_HDMV/PGS
Codec ID/Info : Picture based subtitle format used on BDs/HD-DVDs
Language : Portuguese
Default : No
Forced : No
Text #6
ID : 9
Format : PGS
Muxing mode : zlib
Codec ID : S_HDMV/PGS
Codec ID/Info : Picture based subtitle format used on BDs/HD-DVDs
Language : Dutch
Default : No
Forced : No
Menu
00:00:00.000 : en: 1. Seventy - Six Trombones
00:05:17.450 : en: 2. Dark Eyes
00:09:18.425 : en: 3. Those Were The Days
00:13:20.233 : en: 4. Walzer Skater's Waltz
00:20:46.178 : en: 5. Maria Mari!
00:26:10.936 : en: 6. Torna a Surriento
00:33:01.279 : en: 7. E lucevan le stelle
00:39:18.356 : en: 8. Salomé
00:42:31.516 : en: 9. Sabre Dance
00:45:28.826 : en: 10. The Red Rose Café
00:50:27.358 : en: 11. My Fair Lady 10:36
01:01:03.760 : en: 12. On My Lips Every Kiss Is Like Wine
01:09:22.525 : en: 13. Trumpet Voluntary
01:10:59.122 : en: 14. Lara's Theme
01:14:13.049 : en: 15. Light Cavalry
01:17:22.404 : en: 16. O mio babbino caro
01:23:42.584 : en: 17. Poliushko Polie
01:29:24.993 : en: 18. Somewhere Over The Rainbow
01:35:54.449 : en: 19. The Beautiful Blue Danube
01:46:58.946 : en: 20. Boléro
01:54:27.527 : en: 21. Radetzky March
01:56:35.355 : en: 22. Strauss & Co.
02:00:31.691 : en: 23. Libiamo
02:04:53.419 : en: 24. Auld Lang Syne
02:07:45.958 : en: 25. Maastricht Anthem
02:09:44.677 : en: 26. Maastricht, City Of Jolly Singers
02:12:32.778 : en: 27. Mambo Nr. 5
02:16:10.863 : en: 28. Tutti Frutti
02:20:00.259 : en: 29. Can't Help Falling In Love
02:23:06.378 : en: 30. Beer Barrel Polka
02:25:27.719 : en: 31. Adieu, Little Captain Of My Heart
02:29:48.847 : en: 32. Marina

Tracklist:
1. Seventy - Six Trombones
2. Dark Eyes
3. Those Were The Days (Dorogoi Dlinnoyu)
4. Skater's Waltz, ARV_11
5. Maria Mari!
6. Torna a Soriento
7. E lucevan le stelle
8. Salomé
9. Sabre Dance
10. The Red Rose Café
11. My Fair Lady
12. On My Lips Every Kiss Is Like Wine
13. Trumpet Voluntary
14. Lara's Theme (from Dr. Zhivago)
15. Light Cavalry
16. O mio babbino caro, ARV_15
17. Poliushko Polie
18. Somewhere Over The Rainbow
19. The Beautiful Blue Danube, ARV_15
20. Boléro
21. Radetzky March, ARV_15
22. Strauss & Co, ARV_15
23. Libiamo, ARV_10
24. Auld Lang Syne, ARV_16
25. Maastricht Anthem, ARV_09
26. Maastricht, City Of Jolly Singers
27. Mambo Nr. 5
28. Tutti Frutti
29. Can't Help Falling In Love
30. Beer Barrel Polka
31. Adieu, little captain of my heart
32. Marina
( enlarge to original size):

André Rieu / Andre Rieu: Falling in Love in Maastricht (2016)


André Rieu / Andre Rieu: Falling in Love in Maastricht (2016)


André Rieu / Andre Rieu: Falling in Love in Maastricht (2016)


André Rieu / Andre Rieu: Falling in Love in Maastricht (2016)

Download link :
(If you need these, buy and download immediately before they are delete)
Uploadgig.com :
http://uploadgig.com/file/download/42e17E5Da90a694a/3lugd.Andr.Rieu..Andre.Rieu.Falling.in.Love.in.Maastricht.2016.tut2u.part1.rar
http://uploadgig.com/file/download/b11d92E3DC0d2476/3lugd.Andr.Rieu..Andre.Rieu.Falling.in.Love.in.Maastricht.2016.tut2u.part2.rar
http://uploadgig.com/file/download/3a2FF624865e37c8/3lugd.Andr.Rieu..Andre.Rieu.Falling.in.Love.in.Maastricht.2016.tut2u.part3.rar
http://uploadgig.com/file/download/b715623B2e106B55/3lugd.Andr.Rieu..Andre.Rieu.Falling.in.Love.in.Maastricht.2016.tut2u.part4.rar
http://uploadgig.com/file/download/1dAD962445cC1e34/3lugd.Andr.Rieu..Andre.Rieu.Falling.in.Love.in.Maastricht.2016.tut2u.part5.rar
http://uploadgig.com/file/download/aD5b457fdD9Fa871/3lugd.Andr.Rieu..Andre.Rieu.Falling.in.Love.in.Maastricht.2016.tut2u.part6.rar

Rapidgator.net:
http://rapidgator.net/file/cc603f0043b054a787aef7036433e2e5/3lugd.Andr.Rieu..Andre.Rieu.Falling.in.Love.in.Maastricht.2016.tut2u.part1.rar.html
http://rapidgator.net/file/870380c3c5d4843ed34b50ae1bf4549a/3lugd.Andr.Rieu..Andre.Rieu.Falling.in.Love.in.Maastricht.2016.tut2u.part2.rar.html
http://rapidgator.net/file/3dc51e933df1a7c3946f635533364d07/3lugd.Andr.Rieu..Andre.Rieu.Falling.in.Love.in.Maastricht.2016.tut2u.part3.rar.html
http://rapidgator.net/file/6fc1d31e1ab3882c9398e685b5c0218a/3lugd.Andr.Rieu..Andre.Rieu.Falling.in.Love.in.Maastricht.2016.tut2u.part4.rar.html
http://rapidgator.net/file/53244a5b1e80c99133c689b68b1c1c3c/3lugd.Andr.Rieu..Andre.Rieu.Falling.in.Love.in.Maastricht.2016.tut2u.part5.rar.html
http://rapidgator.net/file/4b71c0c81acb805c138c66b329cb0964/3lugd.Andr.Rieu..Andre.Rieu.Falling.in.Love.in.Maastricht.2016.tut2u.part6.rar.html
Links are Interchangeable - Single Extraction - Premium is support resumable
[related-news][/related-news]

Please login or register

Dear visitor, you are browsing our website as Guest. We strongly recommend you to register and login to view hidden contents.

Comments (0)

Information

Would you like to leave your comment and see hide contents ? Please Login to your account to leave comments. Don't have an account? You can create a free account now.